Asura.The.City.of.Madness.2016.720p.BRRip.x264.AC3.HORiZON-ArtSub...

  • Category Movies
  • Type HD
  • Language Korean
  • Total size 2.3 GB
  • Uploaded By noriegaRJ
  • Downloads 515
  • Last checked 2 days ago
  • Date uploaded 1 week ago
  • Seeders 103
  • Leechers 11

Asura: The City of Madness

ActionCrime

A shady cop finds himself in over his head when he gets caught between Internal Affairs and the city’s corrupt mayor, in this scintillating crime drama from Korean maestro Kim Sung-soo (The Warrior).

Infohash : 8B0849E7873904EF9D7B90F8D9B443C247FFDA50

Release: Asura.The.City.of.Madness.2016.720p.BRRip.x264.AC3.HORiZON-ArtSubs



IMDB: http://www.imdb.com/title/tt5918028/

Subtitle: English

Plot: Detective Han (JUNG Woo-sung), who for years has been secretly doing dirty work for the corrupt mayor Park Sungbae (HWANG Jung-min), is now pressured by a ruthless prosecutor Kim Cha-in (KWAK Do-won) to cooperate in an investigation against the mayor. Feeling trapped, Han persuades his young partner Sunmo (JU Ji-hoon) to take over his work for the mayor, but things start to get tangled in unpredictable ways. As things are getting worse, only the most evil survives in this dog-eat-dog world.


Complete name : Asura.The.City.of.Madness.2016.720p.BRRip.x264.AC3.HORiZON-ArtSubs
Format : Matroska
Format version : Version 4 / Version 2
File size : 2.28 GiB
Duration : 2h 13mn
Overall bit rate : 2 448 Kbps
Encoded date : UTC 2017-05-30T15:52:18Z
Writing application : mkvmerge v12.0.0 ('Trust / Lust') 64bit
Writing library : Lavf57.7.2

Video
ID : 1
Format : AVC
Format/Info : Advanced Video Codec
Format profile : [email protected]
Format settings, CABAC : Yes
Format settings, ReFrames : 4 frames
Codec ID : V_MPEG4/ISO/AVC
Duration : 2h 13mn
Bit rate : 1 998 Kbps
Width : 1 280 pixels
Height : 690 pixels
Display aspect ratio : 1.85:1
Frame rate mode : Constant
Frame rate : 23.976 fps
Color space : YUV
Chroma subsampling : 4:2:0
Bit depth : 8 bits
Scan type : Progressive
Bits/(Pixel*Frame) : 0.094
Stream size : 1.82 GiB (80%)
Writing library : x264 core 148 r2708 86b7198
Default : Yes
Forced : No

Audio
ID : 2
Format : AC-3
Format/Info : Audio Coding 3
Mode extension : CM (complete main)
Format settings, Endianness : Big
Codec ID : A_AC3
Duration : 2h 13mn
Bit rate mode : Constant
Bit rate : 448 Kbps
Channel count : 6 channels
Channel positions : Front: L C R, Side: L R, LFE
Sampling rate : 48.0 KHz
Bit depth : 16 bits
Compression mode : Lossy
Delay relative to video : -5ms
Stream size : 427 MiB (18%)
Title : Surround
Language : Korean
Default : Yes
Forced : No

Text
ID : 3
Format : UTF-8
Codec ID : S_TEXT/UTF8
Codec ID/Info : UTF-8 Plain Text
Language : English
Default : Yes
Forced : No


SCREENSHOTS:








Files:

  • Asura.The.City.of.Madness.2016.720p.BRRip.x264.AC3.HORiZON-ArtSubs.mkv (2.3 GB)

There are currently no comments. Feel free to leave one :)

Code:

  • udp://tracker.coppersurfer.tk:6969/announce