Bareilly Ki Barfi (2017) Hindi - 720p - DVDRip - x264 - 900MB - T...

  • Category Movies
  • Type DVD
  • Language Hindi
  • Total size 930.5 MB
  • Uploaded By BRAINLARA777
  • Downloads 6594
  • Last checked 2 days ago
  • Date uploaded 6 days ago
  • Seeders 203
  • Leechers 104

Bareilly Ki Barfi

Comedy

Set in the small-town of Bareilly, Bitti is a free-spirited young girl who lives life on her own terms and refuses to be pressured into getting married. Her life takes a shift when she meets Chirag Dubey and Pritam Vidrohi.

Infohash : D0066C1CB4B0074BDBF15503D8C7263D504378BB

Bareilly Ki Barfi (2017) Hindi - 720p - DVDRip - x264 - 900MB - Team TR

SCREENSHOTS
Click on any image to view full size
SCREENSHOT 2
SCREENSHOT 3
SCREENSHOT 4
SCREENSHOT 5



Team TamilRockers Exclusive
Source : Hon3y (Thanks)

Media Info
General
Format                         : Matroska
File size                      : 930 MiB
Duration                       : 2 h 41 min
Overall bit rate               : 804 kb/s


Video
ID                             : 1
Format                         : AVC
Format/Info                    : Advanced Video Codec
Duration                       : 2 h 41 min
Bit rate                       : 606 kb/s
Width                          : 1280pixels
Height                         : 544 pixels
Stream size                    : 691 MiB (74%)

Audio
ID                             : 2
Format                         : AAC
Duration                       : 2 h 41 min
Bit rate                       : 192 kb/s
Channel(s)                     : 2 channels
Stream size                    : 222 MiB (24%)

Files:

  • www.TamilRockers.re - Bareilly Ki Barfi (2017) Hindi - 720p - HQ DVDRip - x264 - 900MB - ESubs.mkv (930.5 MB)

Comments

Code:

  • udp://tracker.opentrackr.org:1337
  • udp://tracker.coppersurfer.tk:6969
  • udp://tracker.leechers-paradise.org:6969
  • udp://zer0day.ch:1337
  • udp://explodie.org:6969